<?xml version="1.0" standalone="no"?>
<!DOCTYPE svg PUBLIC "-//W3C//DTD SVG 1.1//EN" "http://www.w3.org/Graphics/SVG/1.1/DTD/svg11.dtd" >
<svg xmlns="http://www.w3.org/2000/svg">
<metadata>Generated by IcoMoon</metadata>
<defs>
<font id="museum_sn" horiz-adv-x="1024">
<font-face units-per-em="1024" ascent="960" descent="-64" />
<missing-glyph horiz-adv-x="1024" />
<glyph unicode="&#x20;" horiz-adv-x="512" d="" />
<glyph unicode="&#xe900;" glyph-name="arrow-down-akkordeon" d="M896.837 356.308l-35.472 35.472c-9.37 9.37-24.094 9.37-33.464 0l-269.051-269.051v799.122c0 12.716-10.708 23.425-23.425 23.425h-49.527c-12.716 0-23.425-10.708-23.425-23.425v-794.437l-263.027 263.027c-9.37 9.37-24.094 9.37-33.464 0l-35.472-35.472c-9.37-9.37-9.37-24.094 0-33.464l365.427-365.427c8.031-8.031 20.748-9.37 30.118-2.677 2.008 1.339 4.016 2.008 5.354 4.016l365.427 365.427c9.37 9.37 9.37 24.094 0 33.464z" />
<glyph unicode="&#xe901;" glyph-name="arrow-left-buehne" horiz-adv-x="616" d="M12.8 446.976l-2.56-2.56 24.064-21.504 6.656-7.168 1.024 0.512 536.576-478.72 30.208 34.304-532.48 475.136 532.48 475.136-30.208 34.304-536.576-478.208-1.024 0.512-6.656-7.68-24.064-20.992z" />
<glyph unicode="&#xe902;" glyph-name="arrow-right" d="M91.429-45.714v992.549l859.429-496.64-859.429-495.909z" />
<glyph unicode="&#xe903;" glyph-name="arrow-right-buehne" horiz-adv-x="616" d="M606.72 446.976l2.048 3.072-23.552 20.992-6.656 7.68-1.024-0.512-536.576 478.208-30.72-34.304 532.48-475.136-532.48-475.136 30.72-34.304 536.576 478.72 1.024-0.512 6.656 7.168 23.552 21.504z" />
<glyph unicode="&#xe904;" glyph-name="arrow-up-akkordeon" d="M130.51 539.022l35.472-35.472c9.37-9.37 24.094-9.37 33.464 0l269.051 269.051v-799.791c0-12.716 10.708-23.425 23.425-23.425h49.527c12.716 0 23.425 10.708 23.425 23.425v794.437l263.697-262.358c9.37-9.37 24.094-9.37 33.464 0l35.472 35.472c9.37 9.37 9.37 24.094 0 33.464l-365.427 364.758c-8.031 8.031-20.748 9.37-30.118 2.677-2.008-1.339-4.016-2.008-5.354-4.016l-366.097-364.758c-8.701-9.37-8.701-24.763 0-33.464z" />
<glyph unicode="&#xe905;" glyph-name="checkbox" d="M18.45-45.55v982.486h982.486v-982.486h-982.486zM84.872 19.95h850.566v851.488h-850.566v-851.488z" />
<glyph unicode="&#xe906;" glyph-name="download" d="M514.818 136.103l-248.015 248.015h198.224v561.791h98.642v-561.791h198.224l-247.075-248.015zM761.894-45.211h-495.090v99.582h496.029v-99.582z" />
<glyph unicode="&#xe907;" glyph-name="plus" d="M393.629-59.303v367.325h-367.325v270.561h367.325v367.325h248.954v-367.325h367.325v-270.561h-368.264v-367.325h-248.015z" />
<glyph unicode="&#xe908;" glyph-name="radiobutton" d="M32.288 445.232c0 134.688 47.049 249.081 142.068 344.101 95.020 95.942 210.335 142.991 345.023 142.991s249.081-47.049 344.101-142.068c95.020-95.020 142.068-210.335 142.068-345.023s-47.049-249.081-142.068-344.101c-95.020-95.020-209.413-142.068-344.101-142.068s-249.081 47.049-344.101 142.068c-95.942 95.020-142.991 210.335-142.991 344.101zM97.787 445.232c0-116.238 41.514-215.87 123.618-297.975s181.737-123.618 297.975-123.618c116.238 0 215.87 41.514 297.975 123.618s123.618 181.737 123.618 297.975-41.514 215.87-123.618 298.897c-82.105 82.105-181.737 123.618-297.975 123.618s-215.87-41.514-297.975-123.618-123.618-181.737-123.618-298.897z" />
<glyph unicode="&#xe909;" glyph-name="search" d="M384 292.352c-156.16 0-283.648 126.976-283.648 283.648s127.488 283.136 283.648 283.136 283.648-126.976 283.648-283.648-126.976-283.136-283.648-283.136zM761.856 575.488c0 208.896-168.96 377.856-377.856 377.856s-377.856-168.96-377.856-377.856 168.96-377.856 377.856-377.856 377.856 169.472 377.856 377.856zM986.112 107.008l-231.424 231.424c-34.304-53.76-79.872-99.328-133.632-133.632l231.424-231.424c36.864-36.864 96.768-36.864 133.632 0s36.864 96.768 0 133.632z" />
<glyph unicode="&#xe90a;" glyph-name="icon-dreieck-links" d="M660.8 795.84v-695.68l-346.88 347.52 346.88 348.16z" />
<glyph unicode="&#xe90b;" glyph-name="icon-dreieck-rechts" d="M371.2 67.2v697.6l345.6-348.8z" />
<glyph unicode="&#xe90c;" glyph-name="icon-facebook" d="M0 960v-1024h471.36v398.72h-153.28v153.6h153.6v113.28c0 131.52 91.52 204.8 230.4 204.8 7.324 0.196 15.946 0.308 24.593 0.308 40.387 0 80.205-2.437 119.315-7.172l-4.708-139.376h-96c-73.28 0-87.68-29.12-87.68-76.8v-98.88h175.68l-22.080-153.6h-153.6v-394.88h366.4v1024h-1024z" />
<glyph unicode="&#xe90d;" glyph-name="icon-hamburger" d="M981.333 150.4h-885.76v106.667h885.76v-106.667zM981.333 362.667h-885.76v106.667h885.76v-106.667zM981.333 576h-885.76v106.667h885.76v-106.667z" />
<glyph unicode="&#xe90e;" glyph-name="icon-linkpfeil" d="M620.8 444.8l-214.4 121.6v-38.4l160-89.6-160-76.8v-38.4l214.4 108.8v12.8c0 0 0 0 0 0z" />
<glyph unicode="&#xe90f;" glyph-name="icon-link-pfeil-fett" d="M659.2 460.8l-233.6 112v-60.8l166.4-70.4-166.4-67.2v-60.8l233.6 105.6v41.6z" />
<glyph unicode="&#xe910;" glyph-name="icon-lupe" d="M387.2 368c-3.2 0-6.4 0-9.6 3.2-54.4 51.2-60.8 137.6-9.6 195.2 0 0 3.2 3.2 3.2 3.2 6.4 3.2 12.8 3.2 16-3.2 3.2-3.2 3.2-9.6 0-16-44.8-44.8-44.8-115.2 0-160 0 0 3.2-3.2 3.2-3.2 3.2-3.2 6.4-12.8 0-16 3.2-3.2 0-3.2-3.2-3.2zM768 224l-137.6 137.6c64 89.6 41.6 211.2-48 275.2s-211.2 41.6-275.2-48-41.6-211.2 48-275.2c60.8-44.8 144-48 211.2-9.6l140.8-140.8c16-16 44.8-16 60.8 0s19.2 41.6 0 60.8v0zM553.6 320c-86.4-44.8-188.8-12.8-233.6 73.6s-12.8 188.8 73.6 233.6 188.8 12.8 233.6-73.6c28.8-57.6 25.6-124.8-9.6-176-16-25.6-38.4-44.8-64-57.6v0zM752 179.2c-6.4-6.4-19.2-6.4-28.8 0l-137.6 137.6c9.6 6.4 19.2 16 28.8 25.6l134.4-134.4c12.8-9.6 12.8-22.4 3.2-28.8z" />
<glyph unicode="&#xe911;" glyph-name="icon-pause" d="M576 742.4h124.8v-624h-124.8v624zM323.2 742.4h124.8v-624h-124.8v624z" />
<glyph unicode="&#xe912;" glyph-name="icon-pfeil-eckig-links" d="M522.56 327.36h95.040l-118.080 121.92 118.72 119.68h-95.68l-116.8-119.68 116.8-121.92z" />
<glyph unicode="&#xe913;" glyph-name="icon-pfeil-eckig-rechts" d="M518.4 579.2h-96l118.4-121.6-118.4-118.4h96l115.2 118.4-115.2 121.6z" />
<glyph unicode="&#xe914;" glyph-name="icon-pfeil-eckig-unten-08" d="M790.4 358.4v137.6h-208v208h-140.8v-208h-208v-137.6h208v-211.2h140.8v211.2h208z" />
<glyph unicode="&#xe915;" glyph-name="icon-plus" d="M806.4 358.4v137.6h-211.2v208h-137.6v-208h-208v-137.6h208v-211.2h137.6v211.2h211.2z" />
<glyph unicode="&#xe916;" glyph-name="icon-rollstuhl" d="M649.6 294.4h-35.2c0-99.2-76.8-182.4-172.8-182.4s-172.8 83.2-172.8 182.4c0 73.6 41.6 137.6 102.4 166.4l-6.4 38.4c-76.8-32-131.2-112-131.2-201.6 0-121.6 92.8-217.6 208-217.6 115.2-3.2 208 92.8 208 214.4zM803.2 112l-92.8 259.2c-6.4 12.8-19.2 25.6-35.2 25.6h-153.6l-12.8 76.8h48c64 0 80 25.6 80 54.4h-137.6l-3.2 48c-6.4 41.6-25.6 64-57.6 64-35.2 0-60.8-35.2-54.4-67.2l38.4-233.6c3.2-6.4 9.6-16 19.2-16h224l57.6-163.2c22.4-64 60.8-54.4 70.4-51.2l9.6 3.2zM505.6 720c0 35.2-28.8 64-57.6 64-32 0-57.6-28.8-57.6-64s25.6-60.8 57.6-60.8c32 0 57.6 28.8 57.6 60.8z" />
<glyph unicode="&#xe917;" glyph-name="icon-rollstuhl-hilfe" d="M473.6 499.2l-163.2 160c-19.2 19.2-44.8 32-70.4 32-41.6 0-67.2-25.6-67.2-67.2v-473.6c0-60.8 48-67.2 57.6-67.2v320l92.8-86.4v-105.6c0-38.4 9.6-54.4 51.2-67.2v195.2l-80 83.2v188.8l102.4-102.4c25.6-25.6 54.4-25.6 76.8-9.6zM777.6 307.2h-38.4c-9.6-67.2-70.4-121.6-140.8-121.6-80 0-144 64-144 144 0 51.2 28.8 96 70.4 121.6l-6.4 41.6c-60.8-28.8-102.4-92.8-102.4-163.2 0-102.4 80-182.4 182.4-182.4 92.8 0 169.6 67.2 179.2 160zM294.4 761.6c0 28.8-25.6 54.4-51.2 54.4-28.8 0-51.2-22.4-51.2-54.4 0-25.6 22.4-48 51.2-48 25.6 0 51.2 22.4 51.2 48zM918.4 156.8l-83.2 220.8c-3.2 12.8-16 22.4-32 22.4h-137.6l-12.8 67.2h44.8c57.6 0 70.4 22.4 70.4 44.8h-124.8l-3.2 41.6c-3.2 35.2-22.4 54.4-51.2 54.4-32 0-54.4-28.8-51.2-54.4l35.2-201.6c0-6.4 9.6-12.8 16-12.8h201.6l51.2-140.8c19.2-54.4 54.4-48 64-44.8l12.8 3.2zM646.4 675.2c0 28.8-25.6 54.4-51.2 54.4-28.8 0-51.2-22.4-51.2-54.4 0-25.6 22.4-51.2 51.2-51.2 28.8 3.2 51.2 25.6 51.2 51.2z" />
<glyph unicode="&#xe918;" glyph-name="icon-schliessen" d="M809.6 35.2l-288 284.8-288-284.8-112 112 288 288-288 284.8 112 115.2 288-288 288 288 112-115.2-284.8-284.8 284.8-288z" />
<glyph unicode="&#xe919;" glyph-name="icon-stop" d="M236.8 742.4h553.6v-624h-553.6v624z" />
<glyph unicode="&#xe91a;" glyph-name="icon-unten-pfeil" d="M513.28 312.64l120.32 215.040h-37.44l-88.96-160.64h-1.6l-78.080 160.64h-37.12l107.84-215.040h15.040z" />
<glyph unicode="&#xe91b;" glyph-name="icon-youtube" d="M0 960v-1024h1024v1024h-1024zM564.8 720.96h34.88v-141.76c-0.175-2.013-0.275-4.355-0.275-6.72s0.1-4.707 0.296-7.022c-0.025 0.205-0.027 0.090-0.027-0.025 0-4.418 3.582-8 8-8 0.115 0 0.229 0.002 0.343 0.007 9.608 1.929 17.53 7.96 21.98 16.151l0.084 147.368h34.88v-192h-34.56v20.48c-9.13-12.989-23.376-21.852-39.749-23.658-0.885-0.089-1.62-0.127-2.364-0.127-9.358 0-17.315 5.995-20.241 14.354-2.129 7.613-3.326 16.182-3.326 25.030 0 1.379 0.029 2.75 0.087 4.115l-0.007 151.805zM432.96 656.96c-0.215 2.13-0.338 4.603-0.338 7.105 0 14.81 4.299 28.615 11.718 40.236 9.399 11.719 24.038 19.355 40.46 19.355s31.061-7.636 40.559-19.552c7.061-11.332 11.199-24.956 11.199-39.547 0-2.111-0.087-4.202-0.256-6.269l0.018-67.249c0.231-2.217 0.363-4.791 0.363-7.395 0-14.675-4.186-28.372-11.428-39.963-9.394-11.703-24.033-19.339-40.455-19.339s-31.061 7.636-40.559 19.552c-7.074 11.25-11.222 24.797-11.222 39.312 0 2.194 0.095 4.366 0.28 6.512l-0.019 68.521zM339.52 784.96l27.52-101.44 26.56 103.36h39.040l-46.72-153.92v-104.64h-38.4v104.64c-7.091 32.352-15.241 59.757-25.114 86.324l-23.526 67.596h40.64zM783.68 173.76c-6.689-29.824-31.119-52.417-61.401-56.283-53.902-5.341-116.091-8.365-178.986-8.365-12.466 0-24.904 0.119-37.313 0.355-8.689-0.237-21.127-0.355-33.593-0.355-62.895 0-125.085 3.024-186.43 8.935-22.839 3.295-47.268 25.889-53.866 55.229-6.676 34.172-10.444 72.91-10.444 112.529 0 8.087 0.157 16.136 0.468 24.147-0.277 5.263-0.414 12.798-0.414 20.365 0 40.146 3.865 79.39 11.242 117.38 6.065 25.966 30.495 48.56 60.777 52.426 53.902 5.341 116.091 8.365 178.986 8.365 12.466 0 24.904-0.119 37.313-0.355 8.689 0.237 21.127 0.355 33.593 0.355 62.895 0 125.085-3.024 186.43-8.935 22.839-3.295 47.268-25.889 53.866-55.229 6.672-34.214 10.437-73.003 10.437-112.67 0-8.037-0.155-16.037-0.461-23.999 0.277-5.284 0.415-12.835 0.415-20.419 0-40.13-3.865-79.356-11.244-117.328zM589.76 384c-14.982-1.025-27.915-8.97-35.734-20.632l-0.106 84.632h-34.56v-256h34.56v17.28c7.898-11.921 20.822-19.967 35.68-21.11 0.439-0.020 0.765-0.026 1.094-0.026 12.987 0 23.849 9.102 26.553 21.275 2.334 10.078 3.652 21.442 3.652 33.115 0 1.922-0.036 3.836-0.107 5.741l0.008 75.565c0.077 1.771 0.12 3.849 0.12 5.938 0 11.509-1.327 22.708-3.835 33.453-2.419 11.52-13.357 20.783-26.458 20.783-0.305 0-0.608-0.005-0.911-0.015zM586.24 245.44c0-17.28-5.12-25.6-15.040-25.6-6.942 0.435-13.049 3.683-17.252 8.606l-0.028 115.554c4.341 4.688 10.432 7.702 17.228 7.998 9.972 0.002 15.092-8.958 15.092-25.918v-81.28zM264.64 410.56h40.64v-219.84h38.4v219.84h41.6v35.84h-120.64v-35.84zM455.040 235.52c-4.469-8.291-12.264-14.301-21.55-16.283-4.628-0.037-8.21 3.544-8.21 7.963-0.135 2.009-0.212 4.356-0.212 6.72s0.077 4.711 0.229 7.037l-0.017 140.483h-35.2v-150.72c-0.044-1.086-0.069-2.361-0.069-3.641 0-8.834 1.193-17.389 3.427-25.513 2.789-7.673 10.61-13.547 19.803-13.547 0.859 0 1.707 0.051 2.539 0.151 16.255 1.838 30.263 10.57 39.142 23.175l0.117-19.345h34.56v192h-34.56v-145.6zM484.8 557.44c11.2 0 16.64 8.96 16.64 26.88v80.96c0 17.92-5.44 26.56-16.64 26.56s-16.64-8.96-16.64-26.56v-80.96c-0.32-17.92 5.12-26.88 16.64-26.88zM699.84 384c-0.634 0.029-1.378 0.046-2.125 0.046-15.955 0-30.127-7.632-39.066-19.443-6.883-11.118-10.909-24.447-10.909-38.716 0-2.185 0.094-4.347 0.279-6.484l-0.019-66.602c-0.129-1.631-0.202-3.532-0.202-5.451 0-14.597 4.249-28.201 11.579-39.644 8.913-11.657 23.142-19.294 39.154-19.294 0.911 0 1.816 0.025 2.714 0.073 0.62-0.047 1.492-0.071 2.37-0.071 16.32 0 30.725 8.2 39.32 20.704 4.147 6.057 6.977 13.097 8.074 20.697 0.031 3.785 0.031 11.465 0.031 22.665v3.52h-35.2c0.192-3.489 0.302-7.572 0.302-11.68s-0.11-8.191-0.326-12.246c-0.487-7.147-6.868-13.209-14.666-13.209-0.236 0-0.47 0.006-0.703 0.017-11.807-0.001-17.567 8.959-17.567 26.559v34.24h69.12v40.32c0.156 1.812 0.245 3.922 0.245 6.052 0 14.319-4.019 27.7-10.991 39.075-8.661 11.443-22.596 18.975-38.29 18.975-1.099 0-2.19-0.037-3.27-0.11zM716.8 308.8h-34.88v17.28q0 26.56 17.28 26.56c11.52 0 17.28-8.96 17.28-26.56v-17.6z" />
<glyph unicode="&#xe91c;" glyph-name="instagram" d="M870.4 921.6h-716.8c-56.32 0-102.4-46.080-102.4-102.4v-716.8c0-56.371 46.080-102.4 102.4-102.4h716.8c56.32 0 102.4 46.029 102.4 102.4v716.8c0 56.32-46.080 102.4-102.4 102.4zM511.181 178.022c156.621 0 283.546 127.027 283.546 283.597 0 17.306-2.202 33.997-5.274 50.381h80.947v-369.459c0-19.558-15.872-35.328-35.482-35.328h-645.837c-19.61 0-35.482 15.77-35.482 35.328v369.459h79.309c-3.123-16.384-5.325-33.075-5.325-50.381 0-156.621 127.027-283.597 283.597-283.597zM333.978 461.619c0 97.894 79.36 177.203 177.254 177.203 97.843 0 177.254-79.309 177.254-177.203s-79.411-177.254-177.254-177.254c-97.946 0-177.254 79.36-177.254 177.254zM834.918 665.6h-82.688c-19.558 0-35.43 15.974-35.43 35.43v82.79c0 19.558 15.872 35.379 35.379 35.379h82.688c19.661 0 35.533-15.821 35.533-35.379v-82.739c0-19.507-15.872-35.482-35.482-35.482z" />
</font>
</defs>
</svg>
